Dual-Audio Indiana Jones and the Kingdom of the Crystal Skull (2008) BDRip 1080p Dual Audio [ Hindi 2.0 ORG- En

Discussion in 'Hollywood-Dual Audio' started by SIMPLE, Sep 15, 2014.

  1. SIMPLE

    SIMPLE Administrator Staff Member Administrator Verified Uploader

    Joined:
    Sep 11, 2014
    Messages:
    1,158
    Likes Received:
    17,490
    Trophy Points:
    113



    Indiana Jones and the Kingdom of the Crystal Skull (2008) BDRip 1080p Dual Audio [ Hindi 2.0 ORG- Eng 5.1]

    Poster


    [​IMG]



    Information


    Format : Matroska
    Format version : Version 4 / Version 2
    File size : 3.65 GiB
    Duration : 2h 2mn
    Overall bit rate : 4 268 Kbps
    Frontend And Writing Library : megui




    Video :

    ID : 1
    Format : AVC
    Format/Info : Advanced Video Codec
    Format profile : [email protected]
    Format settings, CABAC : Yes
    Format settings, ReFrames : 5 frames
    Codec ID : V_MPEG4/ISO/AVC
    Duration : 2h 2mn
    Bit rate : 3 600 Kbps
    Width : 1 920 pixels
    Height : 800 pixels
    Display aspect ratio : 2.40:1
    Frame rate mode : Constant
    Frame rate : 23.976 fps
    Stream size : 3.01 GiB (82%)
    Language : English
    Default : Yes
    Forced : No

    Audio 2:

    ID : 2
    Format : AC-3
    Format/Info : Audio Coding 3
    Mode extension : CM (complete main)
    Format settings, Endianness : Big
    Codec ID : A_AC3
    Duration : 2h 2mn
    Bit rate mode : Constant
    Bit rate : 224 Kbps
    Channel(s) : 2 channels
    Channel positions : Front: L R
    Sampling rate : 48.0 KHz
    Bit depth : 16 bits
    Compression mode : Lossy
    Delay relative to video : 1s 500ms
    Stream size : 196 MiB (5%)
    Title : 2.0 ORG DD Tariq Qureshi
    Language : Hindi
    Default : Yes
    Forced : No


    Audio 2:

    ID : 4
    Format : AC-3
    Format/Info : Audio Coding 3
    Mode extension : CM (complete main)
    Format settings, Endianness : Big
    Codec ID : A_AC3
    Duration : 2h 2mn
    Bit rate mode : Constant
    Bit rate : 448 Kbps
    Channel(s) : 6 channels
    Channel positions : Front: L C R, Side: L R, LFE
    Sampling rate : 48.0 KHz
    Bit depth : 16 bits
    Compression mode : Lossy
    Stream size : 393 MiB (10%)
    Title : 5.1 Tariq Qureshi
    Language : English
    Default : No
    Forced : No


    Suntitle

    Text
    ID : 4
    Format : UTF-8
    Codec ID : S_TEXT/UTF8
    Codec ID/Info : UTF-8 Plain Text
    Title : Tariq Qureshi
    Language : English
    Default : Yes
    Forced : No


    Screen


    [​IMG]
    [​IMG]
    [​IMG]
    [​IMG]
    [​IMG]
    [​IMG]




    Download Links

    Hidden Content:
    You must reply before you can see the hidden data contained here.





     

  2. goverdhan lal gupta

    goverdhan lal gupta Active Member

    Joined:
    Sep 6, 2014
    Messages:
    168
    Likes Received:
    32
    Trophy Points:
    28


    greattttttttttttttttttttttttttttttttttt
     
    NISHANT RATHORE likes this.

  3. singhm

    singhm Member

    Joined:
    Sep 7, 2014
    Messages:
    114
    Likes Received:
    0
    Trophy Points:
    18


    relly nice movie brooooooooooo
     

  4. Ajudia27

    Ajudia27 Member

    Joined:
    Sep 5, 2014
    Messages:
    58
    Likes Received:
    0
    Trophy Points:
    16


    good
    movie
     

  5. Dharm

    Dharm Well-Known Member

    Joined:
    Oct 5, 2014
    Messages:
    39
    Likes Received:
    1,310
    Trophy Points:
    93



     

  6. Arpit karwasara

    Arpit karwasara New Member

    Joined:
    Sep 23, 2014
    Messages:
    20
    Likes Received:
    0
    Trophy Points:
    8


    nice movie worthh watching
     

  7. jupiter

    jupiter Active Member

    Joined:
    Sep 10, 2014
    Messages:
    211
    Likes Received:
    37
    Trophy Points:
    43


    Thanks man.
     

  8. Rupam

    Rupam Active Member

    Joined:
    Dec 1, 2014
    Messages:
    43
    Likes Received:
    3
    Trophy Points:
    28


    nice post!!! thanXX
     

  9. tima

    tima New Member

    Joined:
    Dec 23, 2014
    Messages:
    6
    Likes Received:
    1
    Trophy Points:
    3


    thanks
     

  10. sushant barodi

    sushant barodi New Member

    Joined:
    Aug 16, 2017
    Messages:
    2
    Likes Received:
    0
    Trophy Points:
    1


    nice movie. thnk you very much bro
     
    Last edited by a moderator: Aug 16, 2017

  11. rana muhammad ali

    rana muhammad ali New Member

    Joined:
    Sep 12, 2017
    Messages:
    3
    Likes Received:
    0
    Trophy Points:
    1


    very very nice site
     

  12. Vysya

    Vysya New Member

    Joined:
    Oct 6, 2017
    Messages:
    2
    Likes Received:
    0
    Trophy Points:
    0


    thanks for the post :)
     

  13. Vysya

    Vysya New Member

    Joined:
    Oct 6, 2017
    Messages:
    2
    Likes Received:
    0
    Trophy Points:
    0


    Let me see if it works
     
    Last edited by a moderator: Oct 7, 2017

  14. atanu9626

    atanu9626 New Member

    Joined:
    Oct 13, 2017
    Messages:
    3
    Likes Received:
    0
    Trophy Points:
    1


    Is the links are alive, if not then please re-upload it.
     

  15. Jklc

    Jklc New Member

    Joined:
    Oct 15, 2017
    Messages:
    5
    Likes Received:
    1
    Trophy Points:
    1


    Good stuff looking like it is.
     

  16. Jklc

    Jklc New Member

    Joined:
    Oct 15, 2017
    Messages:
    5
    Likes Received:
    1
    Trophy Points:
    1


    thanks for this awesome sharing
     
    Last edited by a moderator: Oct 24, 2017

  17. Rishu202403

    Rishu202403 New Member

    Joined:
    Dec 3, 2017
    Messages:
    1
    Likes Received:
    0
    Trophy Points:
    1


    Great movie thanks
     

Similar Threads: Indiana Jones
Forum Title Date
Hollywood-Dual Audio Indiana Jones Trilogy (1981-1989-2008) 720p BluRay x264 [Dual Audio] [Hindi ORG DD2.0+5.1 - English] Jul 4, 2015

Share This Page